Подпишитесь по e-mail
Interesting
Popular
Site news
Help us



Главная » Музыка » 2011 » Июль » 10

Pink Floyd - Dark Side of the Moon (1973) [30th Anniversary Edition 2003] SACD
  21:40:18 Пожаловаться
MediaGet Скачать Pink Floyd - Dark Side of the Moon (1973) [30th Anniversary Edition 2003] SACD.torrent

Нажми, чтобы увеличить

Label: Capitol Records (made in Japan)
Catalog #: CDP 7243 5 82136 21
Жанр: Psychedelic Rock / Art Rock
Количество треков: 10
Формат: WAVPack (image+.cue) 2.0/5.1 (24/96)
Качество: lossless
Covers: (JPG)-600 dpi 49.63 Mb
Инфо на восстановление: 3%
Размер архива: 2.54 Gb + 925.4 Mb
Залито: letitbit.net, wupload.com, depositfiles.com, filesonic.com, turbobit.net

The Dark Side of The Moon («Обратная сторона Луны») — восьмой альбом группы Pink Floyd 1973 года. Самый успешный альбом группы; общее число продаж — более 40 миллионов экземпляров, самый продаваемый альбом за всю историю группы. Оставался в «Top 200» США 741 неделю, в том числе 591 неделю подряд с 1973 по 1988 годы, несколько раз попадая на первое место. Один из известнейших концептуальных альбомов прогрессивного рока, был записан в период между июнем 1972 года по январь 1973 года на студии Abbey Road в Лондоне с использованием последних на тот момент достижений звукозаписывающей техники, включая мультитрекинг, аналоговый синтезатор, а также различные эффекты с магнитными записями. Альбом получил премию Грэмми "За лучшую технику записи альбома"

Оцифровка без клиппинга, два трансфера — стерео и многоканал в lossless формате.

Tracklist:
-----------------
01. Speak to Me [00:01:08]
02. Breathe [00:03:57]
03. On the Run [00:03:51]
04. Time [00:05:54]
05. The Great Gig in the Sky -00:04:47]
06. Money [00:06:23]
07. Us and Them [00:07:48]
08. Any Colour You Like [00:03:25]
09. Brain Damage [00:03:50]
10. Eclipse [00:02:06]

Pink Floyd - Dark Side of the Moon (1973) [30th Anniversary Edition 2003] SACD

SADC 2.0 (24/96) SACD 2.0 (24/96)

Format: WavPack
Format profile: 4.07
Duration: 42mn 59s
Bit rate mode: Variable
Bit rate: 2 918 Kbps
Channel(s): 2 channels
Sampling rate: 96.0 KHz
Bit depth: 24 bits
Compression ratio: 1.579
Stream size: 897 MiB (100%)
Encoding settings: -m

SADC 5.1 (24/96) SACD 5.1 (24/96) 2.54 Gb

Format: WavPack
Format profile: 4.07
Duration: 43mn 1s
Bit rate mode: Variable
Bit rate: 8 205 Kbps
Channel(s): 6 channels
Channel positions: Front: L C R, Back: L R, LFE
Sampling rate: 96.0 KHz
Bit depth: 24 bits
Compression ratio: 0.562
Stream size: 2.47 GiB (100%)
Encoding settings: -m

--Wupload.com--
Скачать часть 1| Download part1
Скачать часть 2| Download part2
Скачать часть 3| Download part3
Скачать часть 4| Download part4
Скачать часть 5| Download part5
Скачать часть 6| Download part6
--filesonic.com--
Скачать часть 1| Download part1
Скачать часть 2| Download part2
Скачать часть 3| Download part3
Скачать часть 4| Download part4
Скачать часть 5| Download part5
Скачать часть 6| Download part6
--depositfiles.com--
Скачать часть 1| Download part1
Скачать часть 2| Download part2
Скачать часть 3| Download part3
Скачать часть 4| Download part4
Скачать часть 5| Download part5
Скачать часть 6| Download part6
--LetitBit.net--
Скачать CD | Download CD
--Turbobit.net--
Скачать CD | Download CD

Covers — (JPG)-600 dpi 49.63 Mb

--depositfiles.com--
Скачать | Download
--LetitBit.net--
Скачать | Download
--Turbobit.net--
Скачать | Download
--filesonic.com--
Скачать | Download
--Wupload.com--
Скачать | Download

Автор рипа: ksp59 все благодарности ему




Рекомендуется перед скачиванием "Pink Floyd - Dark Side of the Moon (1973) [30th Anniversary Edition 2003] SACD", проверить ВСЕ ссылки на работоспособность. Во время создания материала и его размещения все ссылки были в рабочем состоянии. Все ссылки на файлы предоставлены из открытых источников. спасибо за внимание.

КАК СКАЧАТЬ:
Другие обменники


Мы несомненно рады, что все-таки именно вы зашли к нам на сайт Popular and New, для того чтобы скачать следующий файл "Pink Floyd - Dark Side of the Moon (1973) [30th Anniversary Edition 2003] SACD". Приятно знать, что кто-то ищет файлы, которые есть у нас на сайте. Интересно также то, что сейчас файлы качает не только молодое, но и более старшее поколение. Среди особо разыскиваемых файлов, наиболее интересной категорией является софт, т.е. програмное обеспечение, именно новые версии программ скачивают больше всего. Но не менее интересными остаются также разделы: игры (это то что позволит вам отдохнуть и оторваться от серых будней), фильмы (у каждого есть любимые фильмы молодости, которые были шедеврами, которые так и хочется пересмотреть), музыка (многогранный мир, который отображает состояние души, музыка это для каждого что-то свое...). Каждый найдет что-то свое и скачает то что нужно.
Категория: Музыка | Просмотров: 415 | Добавил: sandreasiv| Рейтинг: 0.0/0
Теги: the, Pink, (1973), of, Floyd, 30th, Moon, Side, Anniversary, Dark

Также можете посмотреть похожие материалы

Комментарии


Уважаемые посетители, оставляйте комментарии по качеству того или иного файла, или доступности ссылок. В комментариях также можно публиковать ссылки на этот же материал, находящийся на торрент-трекерах или на других файлообменниках. ссылки указывать простым текстом.
Всего комментариев: 0
Добавлять комментарии могут только зарегистрированные пользователи.
[ Регистрация | Вход ]
Search
Ads
World news
Actual


Info & more

ГРУППА САЙТА НА ВКОНТАКТЕ.РУ
Информационно-справочный портал "Мои Черкассы
ПРОГРАМКА - загрузись на полную!!!

You Raise.ru - бесплатная автораскрутка сайта. Автосерфинг. Обмен Визитами. Обмен Показами. Обмен Баннерами. Раскрутка сайта. Раскрутка Блогов
[UA Warez Portal]
VSENASAYTI.UCOZ.RU
ITbuben - IT-шные блоги, сообщества и прочее

Онлайн всего: 1
Гостей: 1
Пользователей: 0
Владельцы и создатели данного сайта не несут ответственность за использование и содержание
информации и ссылок, представленных на данном сайте! при копировании любой информации ссылка
на наш сайт обязательна. На сайте также может присутствовать (а может и не присутствовать)
контент 18+ будьте внимательны, администрация также не несет за это ответственности.

ВНИМАНИЕ: Все материалы размещенные на сайте принадлежат их владельцам и предоставляются исключительно в ознакомительных целях.
По истечении 24 часов материал должен быть удален с вашего компьютера.
Незаконная реализация карается законами РФ и Украины: "Об авторском и смежном праве".
Профиль